#TITLE:Ashita wa Makenai GO! FRIEND!;
#SUBTITLE:- Azumanga Daioh;
#ARTIST:Kuwashima Houko;
#TITLETRANSLIT:;
#SUBTITLETRANSLIT:;
#ARTISTTRANSLIT:;
#CREDIT:Kreton;
#BANNER:Ashita wa Makenai GO! FRIEND!.png;
#BACKGROUND:Ashita wa Makenai GO! FRIEND!-bg.png;
#LYRICSPATH:Ashita wa Makenai GO! FRIEND!.lrc;
#CDTITLE:CDTitle.png;
#MUSIC:Ashita wa Makenai GO! FRIEND!.ogg;
#OFFSET:-0.025;
#SAMPLESTART:34.750;
#SAMPLELENGTH:12.400;
#SELECTABLE:YES;
#BPMS:0.000=117.000,8.000=234.000,272.000=117.000,296.000=234.000;
#STOPS:;
#BGCHANGES:;
// cache tags:
#FIRSTBEAT:0.000;
#LASTBEAT:437.500;
#SONGFILENAME:songs/Otaku's Dream 3rd Anime Mix/[Kreton] Ashita wa Makenai GO! FRIEND! - Azumanga Daioh/Ashita wa Makenai GO! FRIEND!.sm;
#HASMUSIC:1;
#HASBANNER:1;
#MUSICLENGTH:125.466;
// end cache tags

//---------------dance-single - Kreton----------------
#NOTES:
     dance-single:
     Kreton:
     Hard:
     9:
     0.717,0.828,0.558,0.016,0.012,558.000,70.000,2.000,0.000,0.000:
0000
0000
0000
0000
0000
1000
0001
0000
,
0100
0000
0010
0000
0000
0000
0001
0000
0010
0000
0001
0000
1000
0100
1000
0100
,
1000
0000
0001
0000
1000
0000
0010
0100
,
1000
0000
1000
0000
0001
0000
0100
0010
,
0001
0000
0100
0000
0010
0000
0100
0001
,
0100
1000
0100
0001
0100
1000
0100
0001
,
0100
0000
0010
0100
0010
0000
1000
0000
,
0001
0000
0100
0010
0100
0000
0001
0000
,
1000
0000
0001
0000
1000
0000
0001
1000
,
0001
0000
0100
0000
0010
0000
1000
0001
,
1000
0000
0100
0000
0010
0000
1000
0010
,
0100
0000
0001
0100
0010
0000
1000
0000
,
0001
0000
1000
0100
0001
0000
0001
0010
,
1000
0000
0100
0010
0100
0010
0100
0010
,
0100
0000
0010
0100
0010
0000
1000
0000
,
0100
0000
1000
0001
0010
0000
0100
0000
,
0010
0000
0100
1000
0010
0000
0010
0000
,
0001
0000
0100
0010
1000
0000
0010
0100
,
0001
0000
1000
0100
1000
0000
0001
0000
,
0100
0000
0001
0010
0001
0000
0100
0000
,
0001
0100
1000
0010
0001
0100
1000
0010
,
0100
0000
1000
0010
1000
0010
1000
0000
,
0001
0000
1000
0010
1000
0000
0001
0100
,
0001
1001
0110
1001
,
0010
0001
0010
0000
0100
1000
0100
0000
,
0001
0110
1001
0110
,
1000
0100
0001
0100
1000
0000
0001
0000
,
1000
0001
1000
0001
1000
0000
0010
0000
,
0100
0000
0010
0000
0100
0000
1000
0100
,
1000
0000
0001
0000
1000
0000
0001
0010
,
0001
0000
0100
0000
0001
0000
0010
0100
,
0010
0001
1000
0001
,
0010
0000
0100
0010
0100
0010
0100
0000
,
0010
0000
0001
1000
0001
1000
0001
0000
,
1000
0100
1000
0000
0010
0000
0100
0001
,
0010
0100
1000
0000
1000
0000
0010
0000
,
1000
0100
1000
0000
0001
0010
0001
0000
,
0010
0100
0010
0000
0100
0010
0100
0000
,
1000
0000
0100
0010
0100
0000
0001
0000
,
0010
0100
0010
0001
0010
0100
0010
0000
,
0110
0000
0100
1000
0100
0000
0010
0001
,
0010
0000
0100
1000
0100
0000
0010
0001
,
0010
0110
1001
0110
,
0011
1100
0001
1000
,
0001
1000
0001
1000
0000
0000
0000
0000
,
0010
0100
0010
0100
0000
1000
0000
0000
,
0110
1001
0110
1001
,
0110
0100
0010
0100
,
1100
0011
1100
0011
,
1100
0011
0001
0010
,
1000
0000
0100
0010
0000
0000
0100
0000
,
0001
0000
0010
0100
0000
0000
0010
0000
,
0100
0000
1000
0000
0001
0010
0001
0010
,
0001
1000
1000
0110
,
1001
0000
0100
0010
0000
0000
0001
0000
,
0110
0000
1000
0100
0000
0000
1000
0000
,
0100
0000
0010
0000
0100
0010
0001
0010
,
0100
0000
0010
0000
1000
0100
0010
0100
,
1000
0100
0010
0100
,
1001
0000
1000
0100
1000
0000
0001
0000
,
0110
0001
1000
0001
,
1100
0000
0001
0010
0001
0000
1000
0100
,
1000
0001
1000
0001
,
0011
0000
1000
0100
1000
0000
0001
0000
,
0010
0001
0110
1000
,
0001
0100
0001
0000
1000
0010
1000
0000
,
0001
0000
0110
0000
0001
0010
0001
0100
,
0001
0010
0001
0000
1000
0000
0000
0000
,
1001
0000
1000
0001
1000
0000
1000
0000
,
1001
0000
0000
0000
0001
0000
1000
0000
0001
0000
0000
1000
0001
0000
0000
0000
,
1001
0010
0100
0000
0110
1000
0001
0000
,
1001
0110
1001
0000
0001
1000
1000
0000
,
1001
0110
0101
1010
,
1000
0010
0100
0001
1000
0001
0010
0100
,
1000
0001
0010
0100
0000
0000
0000
0000
,
0100
0010
0100
0010
0000
0000
0000
0000
,
1001
0000
0100
0010
0100
0000
1000
0001
,
1000
0000
0001
0010
0001
0100
0001
0010
,
0001
0000
1000
0100
0010
0000
0100
1000
,
0010
0000
0001
0010
0001
0000
1000
0100
,
1000
0000
0001
0010
0001
0000
0001
0000
,
1100
1100
0101
0101
,
1000
0001
1000
0000
0010
0100
0010
0000
,
0001
1000
0001
0000
0100
0010
0100
0000
,
1000
0000
0001
0100
0010
0000
1000
0010
,
0100
0000
0001
0010
0100
1000
0100
0010
,
0001
1000
1000
0010
,
0001
0010
0001
0010
0001
0000
1000
0000
,
1000
0100
1000
0000
0001
0010
0001
0000
,
1000
0000
1000
0100
0010
0000
1000
0000
,
1000
0100
0010
0001
0000
0000
0000
0000
,
0001
0010
0100
1000
0000
0000
0000
0000
,
0010
1000
0100
0001
0010
1000
0100
0001
,
0100
0000
0100
0000
1000
0100
1000
0000
,
0011
0011
1100
1100
,
0101
0101
1010
1010
,
0110
0000
0000
1001
0000
0000
0101
0000
,
1010
0000
0000
1001
0000
0000
0110
0000
,
1001
0000
0110
0000
,
1001
0000
0011
0000
,
1000
1000
0100
0100
,
0010
0010
0001
0001
,
0010
0100
1000
0100
0010
0000
1001
0000
,
0100
0010
0001
0010
0100
0000
0100
0000
,
0001
0001
0010
0010
,
0100
0100
1000
1000
,
0110
0000
1000
0100
1000
0100
1000
0000
,
0110
0000
0001
0010
0001
0010
0001
0000
,
1000
1000
1000
1000
0000
0000
2002
0000
,
0000
0000
0000
3003
0000
0000
0000
0000
;

//---------------dance-single - Kreton----------------
#NOTES:
     dance-single:
     Kreton:
     Medium:
     7:
     0.569,0.741,0.231,0.016,0.004,469.000,29.000,2.000,0.000,0.000:
0000
0000
0000
0000
0000
0100
0001
0000
,
1000
0100
0000
0010
0001
0100
0100
0001
,
0010
0010
0001
0001
,
1000
1000
0001
1000
,
0100
0100
1000
0100
,
1000
0000
1000
0100
1000
0001
1000
0100
,
1000
0000
0010
1000
0001
0000
0010
0000
,
1000
0001
0100
1000
,
0001
0001
0001
0001
,
0100
0000
0100
0000
1000
0000
1000
0010
,
0100
1000
0100
0100
,
0010
1000
1000
0010
,
1000
0000
1000
0000
0001
0000
0010
0100
,
0010
0010
1000
0010
,
1000
0000
0001
0010
0100
0000
0100
0000
,
1000
0010
0001
0001
,
0001
0100
0010
0010
,
1000
0000
0010
0000
1000
0000
0010
0100
,
0010
0001
0100
0010
,
1000
0000
1000
0010
0001
0000
0100
0000
,
1000
0100
1000
0000
1000
0100
1000
0000
,
0100
0000
0001
1000
0100
0000
0001
0000
,
0001
0010
0100
0001
,
0001
0010
1000
1001
,
1000
0100
1000
0000
0001
0100
0001
0000
,
1000
0010
1000
0100
,
0001
0100
0001
1000
,
1000
0010
0010
0001
,
0001
1000
1000
0100
,
1000
0010
0001
0010
,
0001
0010
0100
0001
,
0100
0010
0100
0001
1000
0100
0001
0010
,
1000
0001
0100
0001
,
0010
1000
0001
1000
,
0010
1000
0100
0001
,
1000
0001
0010
0010
,
0100
0100
1000
1000
,
0010
0001
0100
0010
,
1000
0100
0100
0010
,
0010
0000
0100
1000
0010
0001
1000
0100
,
0010
0001
1000
0010
,
0010
0010
1000
0010
,
1000
0010
0100
0010
,
1000
0001
0100
1000
,
0100
0001
0100
0000
0000
0000
0000
0000
,
0001
1000
0001
1000
0000
0000
0000
0000
,
1001
0110
1000
0001
,
1000
0001
1000
0001
,
0011
0011
0011
1100
,
1100
0000
1100
0000
0001
0100
0001
0010
,
0001
1000
0010
0100
0000
0000
1000
0000
,
0010
0000
1000
1000
0000
0000
1000
0000
,
0001
0100
0001
0100
,
0001
1000
0010
1000
,
0001
0000
0010
1000
0000
0000
0100
0000
,
1010
0000
1000
1000
0000
0000
0010
0000
,
0100
1000
0100
1000
,
0010
0000
0100
0000
1000
0000
0001
0100
,
0100
0100
1000
1000
,
1001
0000
0001
0001
1000
0000
0010
0000
,
1000
0010
1000
0100
,
0001
0010
0001
0010
,
1000
0100
0001
0001
,
1000
0000
1000
0001
1000
0000
0001
0000
,
0100
0010
0100
0010
,
0100
0001
0100
0001
,
0001
0000
1000
0000
0010
0100
0010
0100
,
0010
0100
0010
0000
0001
0000
0000
0000
,
1100
0000
0001
0001
0010
0000
0100
0000
,
1001
0000
0000
0000
1000
0000
0001
0000
1000
0000
0000
0001
0010
0000
0000
0000
,
0101
0010
1000
0000
0110
0001
0100
0000
,
1000
0001
0100
0000
0100
0010
0001
0000
,
0101
0011
0011
1001
,
0001
0100
0100
1000
0100
0010
0001
1000
,
0010
0000
0100
1000
0000
0000
0000
0000
,
0010
1000
0000
0000
,
1000
0010
0100
0010
,
0001
0001
1000
0010
,
0010
0001
1000
0010
,
0100
1000
1000
0100
,
1000
0000
0001
0001
0001
0000
1000
0000
,
0001
0001
1000
0001
,
0010
1000
0010
0100
,
1000
0001
0100
0100
,
0001
1000
0001
1000
,
0100
0000
1000
0100
0010
1000
0100
0001
,
1000
0010
0010
0100
,
0001
0010
1000
0100
,
0100
0100
0100
0000
0010
0000
1000
0000
,
0010
0010
0001
0001
,
0010
0010
0010
0000
0000
0000
0000
0000
,
1000
0100
1000
0000
0000
0000
0000
0000
,
0001
1000
0010
0010
,
1000
0000
1000
0000
0010
0100
0001
0000
,
0001
0100
0001
1000
,
0000
1000
0010
1000
,
0100
0000
0000
0110
0000
0000
1001
0000
,
1001
0000
0000
0110
0000
0000
0110
0000
,
1001
0000
0110
0000
,
1001
0000
0110
0000
,
0010
0001
0010
1000
,
0100
1000
0010
1000
,
0001
0010
0100
0100
,
1000
0100
0001
1000
,
0010
1000
0001
0010
,
0100
0010
0010
1000
,
1000
0100
1000
0100
,
1000
0000
0000
0001
0001
0001
0000
0000
,
0100
0001
0000
2020
,
0000
0000
0000
3030
0000
0000
0000
0000
;

//---------------dance-single - Kreton----------------
#NOTES:
     dance-single:
     Kreton:
     Easy:
     5:
     0.511,0.872,0.351,0.016,0.004,403.000,44.000,2.000,0.000,0.000:
0000
0000
0000
0000
0000
0001
0000
0000
,
0001
0000
0000
1000
0000
1000
0000
0001
,
0000
1000
0010
1000
,
0001
0010
0001
1000
,
0100
1000
0001
0100
,
0001
1000
0010
1000
,
0001
0100
0001
1000
,
0100
1000
0001
1000
,
0001
1000
0001
1000
,
0100
0010
0100
0010
,
0100
0010
0100
0001
,
1000
0001
1000
1000
,
0001
0001
0010
0010
,
0100
0100
0001
0010
,
0100
1000
0100
0010
,
0001
0010
0100
1000
,
0100
0010
0001
1000
,
1000
0100
0100
0010
,
0010
0001
0001
0010
,
0010
0100
0100
1000
,
1000
0000
1000
1000
,
0001
0001
1000
1000
,
0001
0001
0100
0100
,
0000
1001
1001
1001
,
0000
0100
1000
1000
,
0000
0110
0110
0110
,
0000
0001
0001
1000
,
1000
0010
0100
0010
,
0100
0010
0001
1000
,
0001
0010
0100
1000
,
1000
0010
1000
0001
,
0001
0100
0001
0010
,
0100
1000
0100
0010
,
0001
1000
0100
0100
,
0100
1000
0001
0010
,
0010
0010
0001
1000
,
1000
0100
0100
0010
,
0010
0001
0001
0010
,
0010
0100
0100
1000
,
1000
0100
0100
0010
,
1000
0010
0100
0001
,
0100
0010
0001
0010
,
0000
1001
1001
0000
,
0110
0110
0000
0010
,
0010
0010
0000
0000
,
0100
0100
0000
0000
,
1100
1100
1100
0000
,
0011
0011
0011
0000
,
0110
0110
0110
0000
,
1001
1001
0000
1001
,
1001
1001
0000
1000
,
1000
1000
0000
0000
,
0001
0010
0001
1000
,
0100
1000
0001
0001
,
1000
1000
0000
0001
,
0001
0001
0000
1000
,
1000
1000
0010
0100
,
0010
0100
0010
0100
,
0001
1000
0001
1000
,
0001
1000
0001
0001
,
0100
0100
0010
0010
,
1000
1000
0001
0010
,
0100
1000
0100
0010
,
0001
0010
0100
1000
,
0100
0010
0001
0010
,
0100
1000
0100
0100
,
0100
0100
0100
1000
,
0100
1000
1000
0000
,
0110
0000
0100
0010
0100
0000
1000
0000
,
0001
0000
0000
0000
0010
0000
0100
0000
0010
0000
0000
0010
0010
0000
0000
0000
,
0100
0100
0100
0000
0010
0010
0010
0000
,
1001
1001
1001
0000
0110
0110
0110
0000
,
1001
0110
1001
0110
,
0001
1000
0100
0010
0001
0010
0100
0010
,
0100
0010
0000
0000
,
0100
0010
0000
0000
,
1000
0100
0010
0001
,
0010
0100
1000
0010
,
0010
0010
0100
0100
,
0100
1000
1000
1000
,
0001
0001
0001
0010
,
0100
1000
0100
0010
,
0001
1000
1000
0001
,
0001
0010
0010
0100
,
0100
1000
1000
0010
,
0001
0010
0100
1000
,
0100
0001
1000
0001
,
1000
0001
1000
0100
,
0010
0100
0010
0100
,
0010
0100
0001
0100
,
0001
1000
0000
0000
,
0100
0100
0000
0000
,
0100
0100
0100
1000
,
1000
1000
0001
0001
,
0001
1000
1000
1000
,
0100
0100
0100
0000
,
0110
0000
0000
0110
,
0110
0000
0000
1001
,
1001
0000
0110
0000
,
0110
0000
1001
0000
,
1000
1000
0100
0100
,
0010
0010
0001
0001
,
1000
1000
0001
0001
,
0100
0010
0100
0010
,
0100
0010
0100
0001
,
0001
0010
0010
1000
,
1000
0001
0100
0001
,
1000
0100
1000
0010
,
0100
0010
0000
0220
,
0000
0000
0000
0330
0000
0000
0000
0000
;

//---------------dance-single - Kreton----------------
#NOTES:
     dance-single:
     Kreton:
     Beginner:
     2:
     0.142,0.217,0.000,0.000,0.000,125.000,0.000,0.000,0.000,0.000:
1000
0000
0000
0000
,
0000
0000
0000
0000
,
0100
0000
0000
0000
,
0001
0000
0000
0000
,
1000
0000
0000
0000
,
0010
0000
0000
0000
,
1000
0000
0000
0000
,
0001
0000
0000
0000
,
1000
0000
0010
0000
,
0100
0000
0000
0000
,
0100
0000
0000
0000
,
0001
0000
0000
0000
,
1000
0000
0001
0000
,
0100
0000
0000
0000
,
0100
0000
0000
0000
,
0010
0000
0000
0000
,
1000
0000
0100
0000
,
0001
0000
0000
0000
,
1000
0000
0000
0000
,
0100
0000
0000
0000
,
0100
0000
0010
0000
,
0100
0000
0000
0000
,
1000
0000
0000
0000
,
0010
0000
0000
0000
,
1000
0000
0000
0000
,
0010
0000
0000
0000
,
0100
0000
0000
0000
,
0001
0000
0000
0000
,
1000
0000
0000
0000
,
0100
0000
0000
0000
,
0010
0000
0000
0000
,
0100
0000
0000
0000
,
1000
0000
0000
0000
,
0001
0000
0000
0000
,
1000
0000
0010
0000
,
0001
0000
0000
0000
,
1000
0000
0000
0000
,
0100
0000
0000
0000
,
0010
0000
0000
0000
,
1000
0000
0000
0000
,
0001
0000
0000
0000
,
0100
0000
0000
0000
,
0010
0000
1000
0000
,
0100
0000
0000
0000
,
0001
0000
0000
0000
,
0100
0000
0000
0000
,
0010
0000
0000
0000
,
1000
0000
0000
0000
,
0001
0000
1000
0000
,
0001
0000
0100
0000
,
0010
0000
0000
0000
,
1000
0000
0000
0000
,
0010
0000
0000
0000
,
0100
0000
0000
0000
,
0001
0000
0000
0000
,
1000
0000
0000
0000
,
0100
0000
0000
0000
,
0010
0000
0000
0000
,
1000
0000
0000
0000
,
0001
0000
0000
0000
,
0100
0000
0000
0000
,
0001
0000
0000
0000
,
0010
0000
0000
0000
,
1000
0000
0000
0000
,
0100
0000
0000
0000
,
0010
0000
0000
0000
,
0001
0000
0000
0000
,
1000
0000
0000
0000
,
0100
0000
0000
0000
,
0010
0000
0000
0000
,
0100
0000
0000
0000
,
0001
0000
0000
0000
,
0100
0000
0010
0000
,
0100
0000
0001
0000
,
0100
0000
0000
0000
,
1000
0000
0000
0000
,
0010
0000
1000
0000
,
0100
0000
0000
0000
,
0100
0000
0000
0000
,
0001
0000
0000
0000
,
1000
0000
0001
0000
,
0100
0000
0000
0000
,
0100
0000
0000
0000
,
0010
0000
0000
0000
,
1000
0000
0000
0000
,
0001
0000
0000
0000
,
1000
0000
0000
0000
,
0100
0000
0000
0000
,
0001
0000
1000
0000
,
0100
0000
0000
0000
,
0010
0000
0000
0000
,
1000
0000
0000
0000
,
0001
0000
0000
0000
,
0100
0000
0000
0000
,
1000
0000
0001
0000
,
0100
0000
0010
0000
,
0100
0000
0000
0000
,
0000
0000
0000
0000
,
1000
0000
0001
0000
,
0100
0000
0010
0000
,
0100
0000
0000
0000
,
1000
0000
0000
0000
,
0100
0000
0000
0000
,
0010
0000
0000
0000
,
0001
0000
0000
0000
,
1000
0000
0000
0000
,
0100
0000
0000
0000
,
1000
0000
0000
0000
,
0001
0000
0000
0010
;
